Ergebnis 1 bis 2 von 2

Thema: Status Quo - The Last Night Of The Electrics 2017 - alE13

  1. #1
    bixelgroup.net Pro Member Avatar von didjital
    Registriert seit
    02.10.17
    Beiträge
    546
    Bedankt
    0
    Danke erhalten: 107

    Status Quo - The Last Night Of The Electrics 2017 - alE13

    Status Quo - The Last Night Of The Electrics 2017 - alE13



    Genre: Konzert
    Release: 2017
    Laufzeit: 98 Min
    Größe: 8,51 GB
    Video: 1080p 16:9
    Sprache: Englisch AC-3 5.1
    Video Stream: BD
    Hoster: Share-online.biz
    Passwort: didjital

    Status Quo zählen zu den erfolgreichsten Rockbands Großbritanniens mit über 118 Millionen verkaufter Alben und über 6.000 gespielter Live-Shows. Mit „The Last Night Of The Electrics“, aufgenommen in der Londoner O2 Arena, endet ihre weltbekannte Telecaster-Ära.

    Francis Rossi erklärt: „Diese Veröffentlichung fängt Quo in einer unglaublichen Form ein, bei einem Konzert, das mir noch lange in Erinnerung bleiben wird. Es war schwer, den Schritt auf die Bühne zu setzen, aber als es an Zeit war, wussten wir was zu tun war – und wir haben abgeliefert. Das war auf keinen Fall Alltagsgeschäft und das wird es auch niemals sein, aber die gespannte Stimmung, die Energie der Musik, der Band und des Publikums war für uns greifbar.“
    Eigentlich als krönender Abschluss geplant, nahm ihre Winter-Tour 2016 eine überraschende Wendung, als Rick Parfitt aufgrund gesundheitlicher Probleme, die sein Leben Ende letzten Jahres auf tragische Weise beendeten, nicht teilnehmen konnte. Durch Ricks Wunsch und den Wunsch der Fans, weiterhin Musik zu machen, machte die Band einen weiteren Schritt nach vorn und präsentierte dem treuen Publikum der O2 Arena eine besondere Show.

    „The Last Night Of The Electrics“ erscheint als 2CD, DVD, Blu-ray, Ltd. Edition 180g Black Triple Vinyl im Doppel-Gatefold mit Seite 6 “etched" sowie als 120-seitiges earBOOK inkl. der 2CD, DVD & Blu-ray.
    Status Quos Weg hat viele Wendungen genommen. Die Ereignisse des vergangenen Jahres waren auch in der bisherigen Bandgeschichte unvergleichlich, aber „The Last Night Of The Electrics“ zeigt, dass sie auch in schweren Zeiten vorankommen und ihrem Erbe gerecht werden. Es ist der Sound von Quo.

    MediaInfo

    General
    Unique ID : 196181096402776109510717645096110884916 (0x93971AD4BA8CEA96A93B7BAF3FD58834)
    Complete name : Status Quo - The Last Night Of The Electrics 2017 - alE13.mkv
    Format : Matroska
    Format version : Version 4 / Version 2
    File size : 7.53 GiB
    Duration : 1h 38mn
    Overall bit rate : 11.0 Mbps
    Movie name : Status Quo-The Last Night Of The Electrics (2017)-alE13
    Encoded date : UTC 2017-08-30 07:57:27
    Writing application : mkvmerge v8.1.0 ('Psychedelic Postcard') 64bit
    Writing library : libebml v1.3.1 + libmatroska v1.4.2
    Cover : Yes
    Attachments : Cover.jpg

    Video
    ID : 1
    Format : AVC
    Format/Info : Advanced Video Codec
    Format profile : [email protected]
    Format settings : CABAC / 2 Ref Frames
    Format settings, CABAC : Yes
    Format settings, ReFrames : 2 frames
    Codec ID : V_MPEG4/ISO/AVC
    Duration : 1h 38mn
    Bit rate : 10.3 Mbps
    Width : 1 920 pixels
    Height : 1 080 pixels
    Display aspect ratio : 16:9
    Frame rate mode : Constant
    Frame rate : 29.970 (30000/1001) fps
    Color space : YUV
    Chroma subsampling : 4:2:0
    Bit depth : 8 bits
    Scan type : Progressive
    Bits/(Pixel*Frame) : 0.166
    Stream size : 7.09 GiB (94%)
    Title : Status Quo-The Last Night Of The Electrics (2017)-alE13
    Writing library : x264 core 142
    Encoding settings : cabac=1 / ref=1 / deblock=1:-1:-1 / analyse=0x3:0 / me=hex / subme=5 / psy=0 / mixed_ref=0 / me_range=16 / chroma_me=1 / trellis=0 / 8x8dct=1 / cqm=0 / deadzone=21,11 / fast_pskip=1 / chroma_qp_offset=0 / threads=4 / lookahead_threads=1 / sliced_threads=0 / nr=0 / decimate=1 / interlaced=0 / bluray_compat=0 / constrained_intra=0 / bframes=2 / b_pyramid=0 / b_adapt=1 / b_bias=0 / direct=1 / weightb=1 / open_gop=0 / weightp=0 / keyint=24 / keyint_min=13 / scenecut=40 / intra_refresh=0 / rc=2pass / mbtree=0 / bitrate=10317 / ratetol=1.0 / qcomp=0.60 / qpmin=0 / qpmax=69 / qpstep=4 / cplxblur=20.0 / qblur=0.5 / ip_ratio=1.40 / pb_ratio=1.30 / aq=1:1.00
    Default : Yes
    Forced : No
    Color range : Limited
    Color primaries : BT.709
    Transfer characteristics : BT.709
    Matrix coefficients : BT.709

    Audio
    ID : 2
    Format : AC-3
    Format/Info : Audio Coding 3
    Codec ID : A_AC3
    Duration : 1h 38mn
    Bit rate mode : Constant
    Bit rate : 640 Kbps
    Channel(s) : 6 channels
    Channel positions : Front: L C R, Side: L R, LFE
    Sampling rate : 48.0 KHz
    Frame rate : 31.250 fps (1536 SPF)
    Bit depth : 16 bits
    Compression mode : Lossy
    Stream size : 450 MiB (6%)
    Title : Status Quo-The Last Night Of The Electrics (2017)-alE13_AC3
    Language : English
    Service kind : Complete Main
    Default : Yes
    Forced : No

    Menu
    00:00:00.000 : en:(01)00:00:00:000
    00:06:28.521 : en:(02)00:06:28:521
    00:09:14.487 : en:(03)00:09:14:487
    00:11:31.590 : en:(04)00:11:31:590
    00:16:43.502 : en:(05)00:16:43:502
    00:20:45.978 : en:(06)00:20:45:978
    00:24:43.849 : en:(07)00:24:43:849
    00:29:26.598 : en:(08)00:29:26:598
    00:36:52.009 : en:(09)00:36:52:009
    00:40:24.522 : en:(10)00:40:24:522
    00:45:39.369 : en:(11)00:45:39:369
    00:51:21.011 : en:(12)00:51:21:011
    00:56:23.813 : en:(13)00:56:23:813
    01:00:38.768 : en:(14)01:00:38:768
    01:03:41.717 : en:(15)01:03:41:717
    01:09:42.978 : en:(16)01:09:42:978
    01:16:59.681 : en:(17)01:16:59:681
    01:22:01.750 : en:(18)01:22:01:750
    01:26:28.249 : en:(19)01:26:28:249
    01:30:20.148 : en:(20)01:30:20:148


    Tracklist

    1 Caroline
    2 The Wanderer
    3 Something Bout You Baby I Like
    4 Rain
    5 Softer Ride
    6 Beginning Of The End
    7 Hold You Back
    8 Proposin' Medley
    9 Paper Plane
    10 The Oriental
    11 Creepin' Up On You
    12 Gergundula
    13 In The Army Now
    14 The Caveman
    15 Roll Over Lay Down
    16 Down Down
    17 Whatever You Want
    18 Rocking All Over The World
    19 Burning Bridges
    20 Rock And Roll Music / Bye Bye Johnny






    Password: didjital


  2. #Free Download
    Power Free Uploader
    Registriert seit
    16.07.2014
    Beiträge
    2417
     

  3. #2
    bixelgroup.net Pro Member Avatar von Sekes
    Registriert seit
    16.10.17
    Beiträge
    330
    Bedankt
    2
    Danke erhalten: 165

    Status Quo - The Last Night Of The Electrics 2016 (2017, BDRip 1080p)

    Status Quo - The Last Night Of The Electrics 2016 (2017, BDRip 1080p)


    Title: Status Quo - The Last Night Of The Electrics
    Year of release: 2017
    Genre: Rock
    Director: Tim Sidwell
    Cast: Francis Rossi - lead guitar, vocals; Andy Bown - keyboards, rhythm guitar, harmonica, vocals; John "Rhino" Edwards - bass, vocals; Leon Cave - drums, percussion, backing vocals; Richie Malone - rhythm guitar, backing vocals



    Tracklist:


    1 Caroline
    2 The Wanderer
    3 Something Bout You Baby I Like
    4 Rain
    5 Softer Ride
    6 Beginning Of The End
    7 Hold You Back
    8 Proposin' Medley
    9 Paper Plane
    10 The Oriental
    11 Creepin' Up On You
    12 Gergundula
    13 In The Army Now
    14 The Caveman
    15 Roll Over Lay Down
    16 Down Down
    17 Whatever You Want
    18 Rocking All Over The World
    19 Burning Bridges
    20 Rock And Roll Music / Bye Bye Johnny



    Quality: BDRip 1080p
    Video: MPEG-4 AVC / 1920x1080 / 11.7 Mb/s 29.970 fps
    Audio: English DTS, 48.0 KHz, 6 ch, 1510 Kbps
    Audio: English FLAC, 48.0 KHz, 2 ch, 1603 Kbps
    Total Size: 10.46 GB
    Total Time: 01:38:25

    Download Hoster: filefactory.com, share-online.biz, hitfile.net, turbobit.net

Berechtigungen

  • Neue Themen erstellen: Nein
  • Themen beantworten: Nein
  • Anhänge hochladen: Nein
  • Beiträge bearbeiten: Nein
  •  
下載 APK | First Time Aga season 06 episode 01 | Season 1 Episode 5 La Serenata