Ergebnis 1 bis 1 von 1

Thema: Soul Train Music Awards 2018 720p HDTV x264-CRiMSON

  1. #1
    bixelgroup.net Pro Member
    Registriert seit
    28.06.15
    Beiträge
    7.215
    Bedankt
    0
    Danke erhalten: 4.682

    Soul Train Music Awards 2018 720p HDTV x264-CRiMSON



    Description :

    The 2018 Soul Train Music Awards took place on November 17th at the Orleans Arena in Las Vegas, Nevada.
    The ceremony will air on BET and BET Her on November 25th, and will be hosted by Tisha Campbell & Tichina Arnold,
    honoring artists in 12 different categories


    Info :

    Code:
    General
    Unique ID                                : 317766834341679450837092707277002447080 (0xEF0FAA89686AE0F8EFDFFB42280718E8)
    Format                                   : Matroska
    Format version                           : Version 4 / Version 2
    File size                                : 1.93 GiB
    Duration                                 : 1 h 24 min
    Overall bit rate                         : 3 256 kb/s
    Encoded date                             : UTC 2018-11-26 12:50:22
    Writing application                      : mkvmerge v28.2.0 ('The Awakening') 64-bit
    Writing library                          : libebml v1.3.6 + libmatroska v1.4.9
    
    Video
    ID                                       : 1
    Format                                   : AVC
    Format/Info                              : Advanced Video Codec
    Format profile                           : [email protected]
    Format settings                          : CABAC / 5 Ref Frames
    Format settings, CABAC                   : Yes
    Format settings, RefFrames               : 5 frames
    Codec ID                                 : V_MPEG4/ISO/AVC
    Duration                                 : 1 h 24 min
    Bit rate                                 : 2 870 kb/s
    Width                                    : 1 280 pixels
    Height                                   : 720 pixels
    Display aspect ratio                     : 16:9
    Frame rate mode                          : Constant
    Frame rate                               : 29.970 (30000/1001) FPS
    Color space                              : YUV
    Chroma subsampling                       : 4:2:0
    Bit depth                                : 8 bits
    Scan type                                : Progressive
    Bits/(Pixel*Frame)                       : 0.104
    Stream size                              : 1.70 GiB (88%)
    Writing library                          : x264 core 157 r2935 545de2f
    Encoding settings                        : cabac=1 / ref=5 / deblock=1:0:0 / analyse=0x3:0x113 / me=hex / subme=8 / psy=1 / psy_rd=1.00:0.00 / mixed_ref=1 / me_range=16 / chroma_me=1 / trellis=2 / 8x8dct=1 / cqm=0 / deadzone=21,11 / fast_pskip=1 / chroma_qp_offset=-2 / threads=18 / lookahead_threads=3 / sliced_threads=0 / nr=0 / decimate=1 / interlaced=0 / bluray_compat=0 / constrained_intra=0 / bframes=3 / b_pyramid=2 / b_adapt=1 / b_bias=0 / direct=1 / weightb=1 / open_gop=0 / weightp=2 / keyint=300 / keyint_min=29 / scenecut=40 / intra_refresh=0 / rc_lookahead=50 / rc=crf / mbtree=1 / crf=22.0 / qcomp=0.60 / qpmin=0 / qpmax=69 / qpstep=4 / vbv_maxrate=62500 / vbv_bufsize=78125 / crf_max=0.0 / nal_hrd=none / filler=0 / ip_ratio=1.40 / aq=1:1.00
    Language                                 : English
    Default                                  : Yes
    Forced                                   : No
    Color range                              : Limited
    Color primaries                          : BT.709
    Matrix coefficients                      : BT.709
    
    Audio
    ID                                       : 2
    Format                                   : AC-3
    Format/Info                              : Audio Coding 3
    Codec ID                                 : A_AC3
    Duration                                 : 1 h 24 min
    Bit rate mode                            : Constant
    Bit rate                                 : 384 kb/s
    Channel(s)                               : 2 channels
    Channel positions                        : Front: L R
    Sampling rate                            : 48.0 kHz
    Frame rate                               : 31.250 FPS (1536 SPF)
    Bit depth                                : 16 bits
    Compression mode                         : Lossy
    Stream size                              : 233 MiB (12%)
    Service kind                             : Complete Main
    Default                                  : Yes
    Forced                                   : No


    Hoster : Share-Online

    720p :

    Format : mkv
    AC3 CBR
    Size : 1.9 GB



  2. #Free Download
    Power Free Uploader
    Registriert seit
    16.07.2014
    Beiträge
    2417
     

Berechtigungen

  • Neue Themen erstellen: Nein
  • Themen beantworten: Nein
  • Anhänge hochladen: Nein
  • Beiträge bearbeiten: Nein
  •  
1x16 Akame ga Kill! | Matar o morir (Peppermint) (2018) | A Star is Born 2018 720p HC HDRip x264 [1GB]